90%

How to Start and Run A Consulting Business – Paul D. Sheriff

Original price was: $189.00.Current price is: $19.00.

Product Delivery – You will receive Content Access Via Email.
Email – [email protected]

Description

Spread the Knowledge

 width=

How to Start and Run A Consulting Business – Paul D. Sheriff

Release Date : 9/12/2013
Duration : 2h 47m

Course Page

Have you ever wanted to break out of the corporate life and be your own boss? Many people have this dream. In this course you will learn what it takes to start and be successful in your own consulting business. Throughout this course you will learn how to determine what your company should look like, how to manage your money wisely, how to get and keep clients, how best to survive the ups and downs of the economy and how to create an exit strategy. Your instructor has been running his own successful business for over 22 years and shares his valuable insight so you too can be a success!

Table of Contents

Hanging Your Shingle
Money Matters
How to Get and Keep Clients (or Marketing 101)
How To Survive the Ups and Downs
Creating an Exit Strategy

About the Instructor

Paul D. Sheriff is the President of PDSA, Inc. (www.pdsa.com), a Microsoft Partner in Southern California. Paul acts as the Microsoft Regional Director for Southern California assisting the local Microsoft offices with events and evangelism. Reach Paul via email at [email protected] Paul at @pdsainc and facebook.com/PDSApaulsheriff.

File Information (mediainfo)

Quote:

General
Complete name : Pluralsight.How.to.Start.and.Run.A.Consulting.Business.2013.09.12Pluralsight Player_1.mp4
Format : MPEG-4
Format profile : Base Media / Version 2
Codec ID : mp42
File size : 1.22 MiB
Duration : 40s 8ms
Overall bit rate mode : Variable
Overall bit rate : 256 Kbps
Encoded date : UTC 2013-09-11 20:49:40
Tagged date : UTC 2013-09-11 20:49:44
Writing application : HandBrake 0.9.8 2012071700Video
ID : 1
Format : AVC
Format/Info : Advanced Video Codec
Format profile : [email protected]
Format settings, CABAC : No
Format settings, Reframes : 2 frames
Codec ID : avc1
Codec ID/Info : Advanced Video Coding
Duration : 40s 0ms
Bit rate mode : Variable
Bit rate : 125 Kbps
Width : 1 024 pixels
Height : 768 pixels
Display aspect ratio : 4:3
frame rate mode : Variable
frame rate : 15.000 fps
Minimum frame rate : 14.925 fps
Maximum frame rate : 15.152 fps
Color space : YUV
Chroma subsampling : 4:2:0
Bit depth : 8 bits
Scan type : Progressive
Bits/(Pixel*frame) : 0.011
Stream size : 612 KiB (49%)
Writing library : x264 core 120
Encoding settings : cabac=0 / ref=2 / deblock=1:0:0 / analyse=0x1:0x111 / me=umh / subme=6 / psy=1 / psy_rd=1.00:0.00 / mixed_ref=1 / me_range=16 / chroma_me=1 / trellis=0 / 8x8dct=0 / cqm=0 / deadzone=21,11 / fast_pskip=1 / chroma_qp_offset=-2 / threads=12 / sliced_threads=0 / nr=0 / decimate=1 / interlaced=0 / bluray_compat=0 / constrained_intra=0 / bframes=0 / weightp=0 / keyint=50 / keyint_min=15 / scenecut=40 / intra_refresh=0 / rc_lookahead=40 / rc=crf / mbtree=1 / crf=20.0 / qcomp=0.60 / qpmin=3 / qpmax=69 / qpstep=4 / ip_ratio=1.40 / aq=1:1.00
Encoded date : UTC 2013-09-11 20:49:40
Tagged date : UTC 2013-09-11 20:49:44
Color primaries : BT.709
Transfer characteristics : BT.709
Matrix coefficients : BT.709Audio
ID : 2
Format : AAC
Format/Info : Advanced Audio Codec
Format profile : LC
Codec ID : 40
Duration : 40s 8ms
Bit rate mode : Variable
Bit rate : 127 Kbps
Maximum bit rate : 141 Kbps
Channel(s) : 2 channels
Channel positions : Front: L R
Sampling rate : 44.1 KHz
Compression mode : Lossy
Stream size : 620 KiB (50%)
Language : English
Encoded date : UTC 2013-09-11 20:49:40
Tagged date : UTC 2013-09-11 20:49:44

Delivery Method

– After your purchase, you’ll see a View your orders link which goes to the Downloads page. Here, you can download all the files associated with your order.
– Downloads are available once your payment is confirmed, we’ll also send you a download notification email separate from any transaction notification emails you receive from imcourse.net.
– Since it is a digital copy, our suggestion is to download and save it to your hard drive. In case the link is broken for any reason, please contact us and we will resend the new download link.
– If you cannot find the download link, please don’t worry about that. We will update and notify you as soon as possible at 8:00 AM – 8:00 PM (UTC+8).

Thank You For Shopping With Us!

Reviews

There are no reviews yet.

Be the first to review “How to Start and Run A Consulting Business – Paul D. Sheriff”

Your email address will not be published. Required fields are marked *

There are no products